15 17 To Paris 2018 CAM Clean English Audio LLG

DOWNLOAD TORRENT DOWNLOAD DOWNLOAD ANONYMOUS

Posted by LifeLongg •688 on February 14, 2018 in Movies » Drama , verified torrent

Size: 1.01 GB , Seeds: 14 , Peers: 7 ( Updated April 19, 2018 - Refresh )

* Download via Magnet Link , * To download files you need a Bittorrent Client , * How to download torrents from Bit Torrent Scene?

Scrape History ( seeds + peers )

Internal Files

15.17.To Paris.2018.CAM.Clean.English.Audio.LLG
Sample.ts   9.59 MB
15.17.To Paris.2018.CAM.Clean.English.Audio.LLG.mp4   1 GB

Hash Code

d25a4841b09001c60dc6ce95f9c4202200ceb40c

Description

******************************Thumbnail:**********************

SCREENSHOT

******************************Screenshots:********************

Screenshot 1

Screenshot 2

Screenshot 3

Screenshot 4

Screenshot 5

Screenshot 6

Screenshot 7

Screenshot 8

Screenshot 9

Screenshot 0

Complete name : 15.17.To Paris.2018.CAM.Clean.English.Audio.LLG.mp4
Format : MPEG-4
Format profile : Base Media
Codec ID : isom (isom/iso2/avc1/mp41)
File size : 1.00 GiB
Duration : 1 h 28 min
Overall bit rate : 1 626 kb/s
Writing application : Lavf57.56.101

Video
ID : 1
Format : AVC
Format/Info : Advanced Video Codec
Format profile : High@L3.1
Format settings : CABAC / 4 Ref Frames
Format settings, CABAC : Yes
Format settings, RefFrames : 4 frames
Codec ID : avc1
Codec ID/Info : Advanced Video Coding
Duration : 1 h 28 min
Bit rate : 1 500 kb/s
Width : 1 280 pixels
Height : 408 pixels
Display aspect ratio : 3.137
Frame rate mode : Constant
Frame rate : 29.970 (29970/1000) FPS
Color space : YUV
Chroma subsampling : 4:2:0
Bit depth : 8 bits
Scan type : Progressive
Bits/(Pixel*Frame) : 0.096
Stream size : 942 MiB (92%)


Audio
ID : 2
Format : AC-3
Format/Info : Audio Coding 3
Codec ID : ac-3
Duration : 1 h 28 min
Bit rate mode : Constant
Bit rate : 128 kb/s
Channel(s) : 2 channels
Channel positions : Front: L R
Sampling rate : 48.0 kHz
Frame rate : 31.250 FPS (1536 SPF)
Bit depth : 16 bits
Compression mode : Lossy
Stream size : 80.7 MiB (8%)
Service kind : Complete Main
Default : Yes
Alternate group : 1

Trackers

Refresh Leechers : Updated April 19, 2018

1. udp://tracker.openbittorrent.com:80/announce

2. udp://tracker.opentrackr.org:1337/announce

Comments

You must log in to add a comment.

Embed Code

Sharing Widget

Related torrents

FILENAME SIZE SEEDS PEERS ADDED UPD
[i] The 15 17 to Paris (2018) [WEBRip] [720p] [YTS AM] 796.45 MB 656 143 3 weeks 1 week
[i] The 15 17 to Paris (2018) [BluRay] [1080p] [YTS AM] 1.5 GB 533 218 1 week 6 days
[i] The 15 17 to Paris (2018) [BluRay] [720p] [YTS AM] 801.01 MB 415 168 1 week 6 days
[i] The 15 17 to Paris (2018) [WEBRip] [1080p] [YTS AM] 1.5 GB 373 78 3 weeks 1 week
[i] The.15.17.to.Paris.2018.HDRip.XviD.AC3-EVO[EtMovies] 1.42 GB 183 54 3 weeks 1 week
[i] The.15.17.to.Paris.2018.1080p.WEB-DL.H264.AC3-EVO[N1C] 3.23 GB 133 10 3 weeks 1 week
[i] Paris Can Wait (2016) [720p] [YTS AG] 685.51 MB 106 16 7 months 2 months
[i] Mysteries Of Paris Series 1 4of6 The Secrets of the Templars 108 940.76 MB 102 39 4 days 3 days
[i] Mysteries Of Paris Series 1 6of6 Secrets Beyond the Grave 1080p 993.39 MB 100 34 4 days 3 days
[i] Mysteries Of Paris Series 1 5of6 The Affair of the Poisons 1080p 989.03 MB 99 44 4 days 3 days

Top Movies ( auto generated report )

FILENAME SIZE SEEDS PEERS ADDED UPD
[i] Fahrenheit 451 (2018) [WEBRip] [720p] [YTS AM] 864.37 MB 2206 1124 1 day 6 hours
[i] Dark Crimes (2016) [WEBRip] [720p] [YTS AM] 793.49 MB 2029 1190 3 days 2 days
[i] Girl Lost (2018) [WEBRip] [720p] [YTS AM] 806.4 MB 1869 1102 3 days 2 days
[i] Fahrenheit 451 (2018) [WEBRip] [1080p] [YTS AM] 1.62 GB 1676 713 1 day 6 hours
[i] Dark Crimes (2016) [WEBRip] [1080p] [YTS AM] 1.49 GB 1647 730 3 days 2 days
[i] Burn Out (2017) [WEBRip] [720p] [YTS AM] 886.52 MB 1343 578 1 day 6 hours
[i] Girl Lost (2018) [WEBRip] [1080p] [YTS AM] 1.52 GB 1322 591 3 days 2 days
[i] Burn Out (2017) [WEBRip] [1080p] [YTS AM] 1.66 GB 693 250 1 day 6 hours
[i] Deadpool.2.2018.HDTS.XViD.AC3-ETRG 1.29 GB 644 408 4 days 3 days
[i] Death Wish 2018 HDRip XViD-ETRG
Movies - Action , Quality: Audio 10/10 - Video 10/10
704.75 MB 610 588 1 day 4 hours