Your IP Address is . Location is Your ISP and Government can track your torrent activity! Hide your IP with a VPN!

15 17 To Paris 2018 CAM Clean English Audio LLG

DOWNLOAD TORRENT DOWNLOAD DOWNLOAD ANONYMOUS

Posted by LifeLongg •393 on February 14, 2018 in Movies » Drama , verified torrent

Size: 1.01 GB , Seeds: 77 , Peers: 56 ( Updated February 15, 2018 - Refresh )

* Download via Magnet Link , * To download files you need a Bittorrent Client , * How to download torrents from Bit Torrent Scene?

Scrape History ( seeds + peers )

Internal Files

15.17.To Paris.2018.CAM.Clean.English.Audio.LLG
Sample.ts   9.59 MB
15.17.To Paris.2018.CAM.Clean.English.Audio.LLG.mp4   1 GB

Hash Code

d25a4841b09001c60dc6ce95f9c4202200ceb40c

Description

******************************Thumbnail:**********************

SCREENSHOT

******************************Screenshots:********************

Screenshot 1

Screenshot 2

Screenshot 3

Screenshot 4

Screenshot 5

Screenshot 6

Screenshot 7

Screenshot 8

Screenshot 9

Screenshot 0

Complete name : 15.17.To Paris.2018.CAM.Clean.English.Audio.LLG.mp4
Format : MPEG-4
Format profile : Base Media
Codec ID : isom (isom/iso2/avc1/mp41)
File size : 1.00 GiB
Duration : 1 h 28 min
Overall bit rate : 1 626 kb/s
Writing application : Lavf57.56.101

Video
ID : 1
Format : AVC
Format/Info : Advanced Video Codec
Format profile : High@L3.1
Format settings : CABAC / 4 Ref Frames
Format settings, CABAC : Yes
Format settings, RefFrames : 4 frames
Codec ID : avc1
Codec ID/Info : Advanced Video Coding
Duration : 1 h 28 min
Bit rate : 1 500 kb/s
Width : 1 280 pixels
Height : 408 pixels
Display aspect ratio : 3.137
Frame rate mode : Constant
Frame rate : 29.970 (29970/1000) FPS
Color space : YUV
Chroma subsampling : 4:2:0
Bit depth : 8 bits
Scan type : Progressive
Bits/(Pixel*Frame) : 0.096
Stream size : 942 MiB (92%)


Audio
ID : 2
Format : AC-3
Format/Info : Audio Coding 3
Codec ID : ac-3
Duration : 1 h 28 min
Bit rate mode : Constant
Bit rate : 128 kb/s
Channel(s) : 2 channels
Channel positions : Front: L R
Sampling rate : 48.0 kHz
Frame rate : 31.250 FPS (1536 SPF)
Bit depth : 16 bits
Compression mode : Lossy
Stream size : 80.7 MiB (8%)
Service kind : Complete Main
Default : Yes
Alternate group : 1

Trackers

Refresh Leechers : Updated February 15, 2018

1. udp://tracker.openbittorrent.com:80/announce

2. udp://tracker.opentrackr.org:1337/announce

Comments

You must log in to add a comment.

Embed Code

Sharing Widget

Related torrents

FILENAME SIZE SEEDS PEERS ADDED UPD
[i] Paris Can Wait (2016) [720p] [YTS AG] 685.51 MB 167 12 4 months 1 month
[i] 15.17.To Paris.HDCAM.ENG.720p.TKOFF - NutSack 2.44 GB 124 25 6 days 5 hours
[i] Paris Can Wait (2016) [1080p] [YTS AG] 1.41 GB 110 18 4 months 1 month
[i] Keeping.Up.With.The.Kardashians.S13E02.Paris.WEB-DL.x264-PJ219.mp4 404.82 MB 82 2 11 months 5 months
[i] Paris Hilton - I Need You (Single, 2018) Mp3 (320kbps) [Hunter]
posted by The_Hunter in Music - Pop
9.01 MB 56 9 3 days 2 days
[i] Guns 'N' Roses - Live In Paris,Hippodrome de Vincennes (2-CD)1992 ak320 353.25 MB 48 8 1 week 6 days
[i] Paris.Can.Wait.2017.DVDRip.XviD.AC3-EVO 1.34 GB 47 8 5 months 2 months
[i] Paris.Can.Wait.2016.HC.720p.WEB-DL.H264-BD4YU 1.46 GB 37 5 7 months 2 months
[i] Paris.Can.Wait.2016.1080p.WEB-DL.DD5.1.H264-FGT 3.6 GB 36 1 5 months 2 months
[i] Paris Texas 1984 1080p Bluray 10bit x265 AAC 5 1-HazMatt 2.38 GB 26 4 1 year 5 months

Top Movies ( auto generated report )

FILENAME SIZE SEEDS PEERS ADDED UPD
[i] Justice League (2017) [1080p] [YTS AG] 1.82 GB 12547 9377 3 days 15 hours
[i] Justice League (2017) [720p] [YTS AG] 879.76 MB 9077 10986 3 days 2 days
[i] Darkest Hour (2017) [1080p] [YTS AG] 1.9 GB 3668 1884 5 days 4 days
[i] Black.Panther.2018.ENG.HDCAM.x264[SpaceMov] 1.16 GB 3509 1679 2 days 1 day
[i] Three Billboards Outside Ebbing, Missouri (2017) [1080p] [YTS AG] 1.75 GB 3285 2683 2 days 1 day
[i] Darkest Hour (2017) [720p] [YTS AG] 915.12 MB 2991 1675 5 days 4 days
[i] Three Billboards Outside Ebbing, Missouri (2017) [720p] [YTS AG] 847.2 MB 2775 2578 2 days 1 day
[i] Blade of the Immortal (2017) [720p] [YTS AG] 1.02 GB 2535 1410 4 days 3 days
[i] The Gateway (2018) [720p] [YTS AG] 672.53 MB 2155 1029 2 days 1 day
[i] The Gateway (2018) [1080p] [YTS AG] 1.38 GB 2154 876 2 days 1 day