Your IP Address is . Location is Your ISP and Government can track your torrent activity! Hide your IP with a VPN!

All I Want for Christmas Is You 2017 720p WEB-DL x264

DOWNLOAD TORRENT DOWNLOAD DOWNLOAD ANONYMOUS

Posted by moviefreak •704 on November 14, 2017 in Movies » Animation , verified torrent

Size: 1.03 GB , Seeds: 25 , Peers: 6 ( Updated January 17, 2018 - Refresh )

* Download via Magnet Link , * To download files you need a Bittorrent Client , * How to download torrents from Bit Torrent Scene?

Scrape History ( seeds + peers )

Internal Files

All I Want for Christmas Is You 2017 720p WEB-DL x264
All I Want for Christmas Is You 2017 720p WEB-DL x264.mkv   1.03 GB

Hash Code

182e7d52bcf70fb6ca68c6ff8ce374fe79dc1936

Description


SCREENSHOT

General
Format : Matroska
Format version : Version 4 / Version 2
File size : 1.03 GiB
Duration : 1 h 30 min
Overall bit rate : 1 621 kb/s

Video
ID : 1
Format : AVC
Format/Info : Advanced Video Codec
Format profile : High@L3.1
Format settings : CABAC / 4 Ref Frames
Format settings, CABAC : Yes
Format settings, RefFrames : 4 frames
Codec ID : V_MPEG4/ISO/AVC
Duration : 1 h 30 min
Bit rate : 1 500 kb/s
Width : 1 280 pixels
Height : 716 pixels
Display aspect ratio : 16:9
Frame rate mode : Constant
Frame rate : 23.976 (23976/1000) FPS
Color space : YUV
Chroma subsampling : 4:2:0
Bit depth : 8 bits
Scan type : Progressive
Bits/(Pixel*Frame) : 0.068
Stream size : 967 MiB (92%)
Writing library : x264 core 148 r2643 5c65704
Language : English
Default : Yes
Forced : No

Audio
ID : 2
Format : AAC
Format/Info : Advanced Audio Codec
Format profile : LC
Codec ID : A_AAC-2
Duration : 1 h 30 min
Bit rate : 128 kb/s
Channel(s) : 2 channels
Channel positions : Front: L R
Sampling rate : 44.1 kHz
Frame rate : 43.066 FPS (1024 SPF)
Compression mode : Lossy
Stream size : 83.0 MiB (8%)
Language : English
Default : Yes
Forced : No



SCREENSHOT
SCREENSHOT
SCREENSHOT
SCREENSHOT
SCREENSHOT
SCREENSHOT
SCREENSHOT

Trackers

Refresh Leechers : Updated January 17, 2018

1. http://ipv4.tracker.harry.lu/announce

2. http://ipv4.tracker.harry.lu:80/announce

3. udp://tracker.pirateparty.gr:6969/announce

4. udp://p4p.arenabg.com:1337/announce

5. udp://9.rarbg.me:2770/announce

6. udp://9.rarbg.com:2710/announce

7. udp://9.rarbg.to:2720/announce

8. http://tracker.devil-torrents.pl:80/announce

9. http://tracker.devil-torrents.pl/announce

10. http://open.kickasstracker.com/announce

11. https://open.kickasstracker.com:443/announce

12. udp://tracker.coppersurfer.tk:6969/announce

13. udp://tracker.leechers-paradise.org:6969/announce

14. udp://tracker.zer0day.to:1337/announce

15. http://tracker.devil-torrents.pl/announce

Comments

You must log in to add a comment.

Embed Code

Sharing Widget

Related torrents

FILENAME SIZE SEEDS PEERS ADDED UPD
[i] Tushy - Anissa Kate - Getting What I Want With Anal
posted by sanyika in Porn - Movies
352.31 MB 287 47 1 month 5 days
[i] How Do I Do That in Photoshop The Quickest Ways to Do the Things You Want to Do, Right Now! Scott Kelby, the world s 1 best-selling photography technique books 38.83 MB 67 2 3 months 1 month
[i] Body Language Secrets to Win More Negotiations - How to Read Any Opponent and Get What You Want (2016) (Epub) Gooner 1.39 MB 55 4 1 year 1 month
[i] How Do I Do That in Photoshop The Quickest Ways to Do the Things You Want to Do, Right Now quickly get you to the technique, the shortcut, the setting and more 38.83 MB 55 0 1 month 4 days
[i] Body Language Secrets to Win More Negotiations How to Read Any Opponent and Get What You Want help you discover what the “other side” is revealing through body language 1.39 MB 38 3 1 month 2 weeks
[i] Just Fuck Me - What Women Want Men to Know About Taking Control in the Bedroom A Guide for Couples- Revised Edition 137.6 KB 31 0 1 month 1 day
[i] Body Language Secrets to Win More Negotiations - How to Read Any Opponent and Get What You Want 1.39 MB 21 0 10 months 5 months
[i] Getting the Sex You Want - True PDF - [ECLiPSE] 7.95 MB 18 2 8 months 3 months
[i] [SexArt] Coco De Mal - More Than You Want Part 3 (08.10.2017) rq.mp4
posted by samwarez in Porn - Movies
198.32 MB 15 1 3 months 1 week
[i] Engelbert Humperdinck - The Man I Want To Be (2017) Mp3 (320kbps) [Hunter]
posted by The_Hunter in Music - Pop
122.41 MB 15 1 1 month 3 weeks

Top Movies ( auto generated report )

FILENAME SIZE SEEDS PEERS ADDED UPD
[i] Geostorm (2017) [1080p] [YTS AG] 1.67 GB 4368 1091 6 days 6 hours
[i] Geostorm (2017) [720p] [YTS AG] 812.63 MB 4101 1355 6 days 6 hours
[i] Thor.Ragnarok.2017.HDRip.XviD.AC3-EVO[EtMovies] 1.61 GB 2564 1672 2 days 1 day
[i] Mollys Game 2017 DVDScr XVID AC3 HQ Hive CM8 1.79 GB 2420 691 6 days 19 hours
[i] The Man from Earth Holocene (2017) [720p] [YTS AG] 726.46 MB 2189 1099 5 days 4 days
[i] Jigsaw (2017) [720p] [YTS AG] 675.39 MB 2055 1016 6 days 17 hours
[i] Last Flag Flying (2017) [720p] [YTS AG] 903.74 MB 1947 1219 5 days 4 days
[i] Jigsaw (2017) [1080p] [YTS AG] 1.4 GB 1907 973 6 days 17 hours
[i] Thor.Ragnarok.2017.HDRip.XviD.AC3-EVO 1.6 GB 1860 1338 2 days 1 day
[i] The Man from Earth Holocene (2017) [1080p] [YTS AG] 1.51 GB 1803 773 5 days 4 days