Your IP Address is . Location is Your ISP and Government can track your torrent activity! Hide your IP with a VPN!

All I Want for Christmas Is You 2017 720p WEB-DL x264

DOWNLOAD TORRENT DOWNLOAD PROTECT YOUR PRIVACY

Posted by moviefreak •1404 on November 14, 2017 in Movies » Animation , verified torrent

Size: 1.03 GB , Seeds: 6 , Peers: 1 ( Updated February 21, 2018 - Refresh )

* Download via Magnet Link , * To download files you need a Bittorrent Client , * How to download torrents from Bit Torrent Scene?

Scrape History ( seeds + peers )

Internal Files

All I Want for Christmas Is You 2017 720p WEB-DL x264
All I Want for Christmas Is You 2017 720p WEB-DL x264.mkv   1.03 GB

Hash Code

182e7d52bcf70fb6ca68c6ff8ce374fe79dc1936

Description


SCREENSHOT

General
Format : Matroska
Format version : Version 4 / Version 2
File size : 1.03 GiB
Duration : 1 h 30 min
Overall bit rate : 1 621 kb/s

Video
ID : 1
Format : AVC
Format/Info : Advanced Video Codec
Format profile : High@L3.1
Format settings : CABAC / 4 Ref Frames
Format settings, CABAC : Yes
Format settings, RefFrames : 4 frames
Codec ID : V_MPEG4/ISO/AVC
Duration : 1 h 30 min
Bit rate : 1 500 kb/s
Width : 1 280 pixels
Height : 716 pixels
Display aspect ratio : 16:9
Frame rate mode : Constant
Frame rate : 23.976 (23976/1000) FPS
Color space : YUV
Chroma subsampling : 4:2:0
Bit depth : 8 bits
Scan type : Progressive
Bits/(Pixel*Frame) : 0.068
Stream size : 967 MiB (92%)
Writing library : x264 core 148 r2643 5c65704
Language : English
Default : Yes
Forced : No

Audio
ID : 2
Format : AAC
Format/Info : Advanced Audio Codec
Format profile : LC
Codec ID : A_AAC-2
Duration : 1 h 30 min
Bit rate : 128 kb/s
Channel(s) : 2 channels
Channel positions : Front: L R
Sampling rate : 44.1 kHz
Frame rate : 43.066 FPS (1024 SPF)
Compression mode : Lossy
Stream size : 83.0 MiB (8%)
Language : English
Default : Yes
Forced : No



SCREENSHOT
SCREENSHOT
SCREENSHOT
SCREENSHOT
SCREENSHOT
SCREENSHOT
SCREENSHOT

Trackers

Refresh Leechers : Updated February 21, 2018

1. http://ipv4.tracker.harry.lu/announce

2. http://ipv4.tracker.harry.lu:80/announce

3. udp://tracker.pirateparty.gr:6969/announce

4. udp://p4p.arenabg.com:1337/announce

5. udp://9.rarbg.me:2770/announce

6. udp://9.rarbg.com:2710/announce

7. udp://9.rarbg.to:2720/announce

8. http://tracker.devil-torrents.pl:80/announce

9. http://tracker.devil-torrents.pl/announce

10. http://open.kickasstracker.com/announce

11. https://open.kickasstracker.com:443/announce

12. udp://tracker.coppersurfer.tk:6969/announce

13. udp://tracker.leechers-paradise.org:6969/announce

14. udp://tracker.zer0day.to:1337/announce

15. http://tracker.devil-torrents.pl/announce

Comments

You must log in to add a comment.

Embed Code

Sharing Widget

Related torrents

FILENAME SIZE SEEDS PEERS ADDED UPD
[i] I Want My Sister 4[DigitalSin]Split Scenes
posted by nsanyi23 in Porn - Movies
863.66 MB 300 287 3 days 2 days
[i] Tushy - Anissa Kate - Getting What I Want With Anal
posted by sanyika in Porn - Movies
352.31 MB 159 33 4 months 1 month
[i] Body Language Secrets to Win More Negotiations - How to Read Any Opponent and Get What You Want (2016) (Epub) Gooner 1.39 MB 55 4 1 year 4 months
[i] Photoshop How Do I Do - The Quickest Ways to Do the Things You Want to Do, Right Now 40.8 MB 48 3 1 month 4 days
[i] How Do I Do That in Photoshop The Quickest Ways to Do the Things You Want to Do, Right Now! Scott Kelby, the world s 1 best-selling photography technique books 38.83 MB 34 2 6 months 2 weeks
[i] Just Fuck Me! - What Women Want Men to Know About Taking Control in the Bedroom (A Guide for Couples) 137.6 KB 34 0 2 months 1 week
[i] ❤️❤️❤️ Test Your Sister As You Want [Uncensored] JAV HD720p
posted by Bl4ckHaT7 in Porn - Movies
407.72 MB 30 3 3 weeks 1 week
[i] Just Fuck Me! - What Women Want Men to Know About Taking Control in the Bedroom (A Guide for Couples) - Revised Edition 137.6 KB 29 2 4 months 1 month
[i] I want to put absolutely Virgin VS Insert NG Big Breasts Family Teacher Gutukuchu Momentary moment Nurruzubotsu! Monkey Piston SEX no matter how many times it stops Ai Yoshikawa 1.16 GB 29 1 4 months 1 month
[i] [SweetSinner]Penny Pax - I Want All Of You!(NEW**03.26.2018)
posted by nsanyi23 in Porn - Movies
432.5 MB 29 6 4 weeks 2 weeks

Top Movies ( auto generated report )

FILENAME SIZE SEEDS PEERS ADDED UPD
[i] Pacific Rim 2 Uprising 2018 720p korsub hdrip x264 aac2 0-stuttershit 2.75 GB 3342 743 1 day 8 hours
[i] Genesis (2018) [WEBRip] [720p] [YTS AM] 965.85 MB 1369 860 1 day 10 hours
[i] The Debt Collector (2018) [BluRay] [720p] [YTS AM] 818.36 MB 1311 590 1 day 10 hours
[i] downloadhub in Sonu Ke Titu Ki Sweety (2018) Hindi 720p HDRip x264 AAC ESubs - Downloadhub 1.06 GB 1297 910 3 days 1 day
[i] Corbin Nash (2018) [WEBRip] [720p] [YTS AM] 824.69 MB 1240 725 1 day 10 hours
[i] Genesis (2018) [WEBRip] [1080p] [YTS AM] 1.81 GB 1010 581 1 day 10 hours
[i] Corbin Nash (2018) [WEBRip] [1080p] [YTS AM] 1.53 GB 923 421 1 day 10 hours
[i] The Debt Collector (2018) [BluRay] [1080p] [YTS AM] 1.54 GB 774 406 1 day 10 hours
[i] Looking Glass (2018) Nicolas Cage.720p.H264.italian.English.Ac3-5.1.sub.ita.eng.MIRCrew 1.89 GB 773 475 2 days 1 day
[i] Stephanie (2017) [WEBRip] [720p] [YTS AM] 738.22 MB 748 282 3 days 2 days