Brain on Fire 2016 1080p WEB-DL DD5 1 H264-FGT

DOWNLOAD TORRENT DOWNLOAD DOWNLOAD ANONYMOUS

Posted by Lokioddin •1943 on June 5, 2017 in Movies » Drama , verified torrent

Size: 3.09 GB , Seeds: 152 , Peers: 19 ( Updated August 8, 2017 - Refresh )

* Download via Magnet Link , * To download files you need a Bittorrent Client , * How to download torrents from Bit Torrent Scene?

Scrape History ( seeds + peers )

Internal Files

Brain.on.Fire.2016.1080p.WEB-DL.DD5.1.H264-FGT
Brain.on.Fire.2016.1080p.WEB-DL.DD5.1.H264-FGT.mkv   3.09 GB
Brain.on.Fire.2016.1080p.WEB-DL.DD5.1.H264-FGT.nfo   3.75 KB
RARBG.txt   31 Byte

Hash Code

a7f479c4d72b2b3399b82ee5ea9cc5dcd5294f3a

Description

Brain.on.Fire.2016.1080p.WEB-DL.DD5.1.H264-FGT


SCREENSHOT

SCREENSHOT SCREENSHOT SCREENSHOT SCREENSHOT


http://imdb.com/title/tt3704700/

Video
ID : 1
Format : AVC
Format/Info : Advanced Video Codec
Format profile : High@L4
Format settings, CABAC : Yes
Format settings, ReFrames : 5 frames
Codec ID : V_MPEG4/ISO/AVC
Duration : 1h 28mn
Bit rate : 4 491 Kbps
Width : 1 920 pixels
Height : 802 pixels
Display aspect ratio : 2.40:1
Frame rate mode : Constant
Frame rate : 23.976 fps
Color space : YUV
Chroma subsampling : 4:2:0
Bit depth : 8 bits
Scan type : Progressive
Bits/(Pixel*Frame) : 0.122
Stream size : 2.79 GiB (90%)
Title : Brain.on.Fire.2016.1080p.WEB-DL.DD5.1.H264-FGT
Language : English


Audio
ID : 2
Format : AC-3
Format/Info : Audio Coding 3
Mode extension : CM (complete main)
Format settings, Endianness : Big
Codec ID : A_AC3
Duration : 1h 28mn
Bit rate mode : Constant
Bit rate : 384 Kbps
Channel(s) : 6 channels
Channel positions : Front: L C R, Side: L R, LFE
Sampling rate : 48.0 KHz
Frame rate : 31.250 fps (1536 spf)
Compression mode : Lossy
Stream size : 244 MiB (8%)
Title : Brain.on.Fire.2016.1080p.WEB-DL.DD5.1.H264-FGT
Language : English
Default : Yes
Forced : No

Trackers

Refresh Leechers : Updated August 8, 2017

1. http://tracker.trackerfix.com:80/announce

2. udp://9.rarbg.me:2710/announce

3. udp://9.rarbg.to:2710/announce

Comments

You must log in to add a comment.

Embed Code

Sharing Widget

Related torrents

FILENAME SIZE SEEDS PEERS ADDED UPD
[i] Brain on Fire (2016) 720p Web-DL x264 AAC - Downloadhub
posted by downloadhub in Movies - Drama
718.34 MB 4 2 2 months 1 week
[i] Brain.on.Fire.2016.HDRip.350MB 355.52 MB 4 0 2 months 1 week
[i] Brain on Fire 2016 720p WEBRIP AC3 X264 MutzNutz 2.4 GB 0 1 2 months 1 week

Top Movies ( auto generated report )

FILENAME SIZE SEEDS PEERS ADDED UPD
[i] Baywatch (2017) [720p] [YTS AG] 896.85 MB 12160 7311 3 days 19 hours
[i] Baywatch (2017) [1080p] [YTS AG] 1.85 GB 8550 3546 3 days 7 hours
[i] Rough Night (2017) [720p] [YTS AG] 737.07 MB 3856 2420 1 day 9 hours
[i] Security (2017) [720p] [YTS AG] 680.08 MB 3842 803 5 days 1 day
[i] Inconceivable (2017) [720p] [YTS AG] 777.71 MB 3109 1605 3 days 2 days
[i] Security (2017) [1080p] [YTS AG] 1.4 GB 2868 873 5 days 1 day
[i] Rough Night (2017) [1080p] [YTS AG] 1.53 GB 2682 1518 1 day 9 hours
[i] The Recall (2017) [720p] [YTS AG] 672.5 MB 2550 750 3 days 1 day
[i] The Recall (2017) [1080p] [YTS AG] 1.39 GB 2469 1416 3 days 2 days
[i] Inconceivable (2017) [1080p] [YTS AG] 1.61 GB 1913 747 3 days 6 hours