Your IP Address is . Location is Your ISP and Government can track your torrent activity! Hide your IP with a VPN!

Brain on Fire 2016 1080p WEB-DL DD5 1 H264-FGT

DOWNLOAD TORRENT DOWNLOAD DOWNLOAD ANONYMOUS

Posted by Lokioddin •2253 on June 5, 2017 in Movies » Drama , verified torrent

Size: 3.09 GB , Seeds: 42 , Peers: 4 ( Updated November 21, 2017 - Refresh )

* Download via Magnet Link , * To download files you need a Bittorrent Client , * How to download torrents from Bit Torrent Scene?

Scrape History ( seeds + peers )

Internal Files

Brain.on.Fire.2016.1080p.WEB-DL.DD5.1.H264-FGT
Brain.on.Fire.2016.1080p.WEB-DL.DD5.1.H264-FGT.mkv   3.09 GB
Brain.on.Fire.2016.1080p.WEB-DL.DD5.1.H264-FGT.nfo   3.75 KB
RARBG.txt   31 Byte

Hash Code

a7f479c4d72b2b3399b82ee5ea9cc5dcd5294f3a

Description

Brain.on.Fire.2016.1080p.WEB-DL.DD5.1.H264-FGT


SCREENSHOT

SCREENSHOT SCREENSHOT SCREENSHOT SCREENSHOT


http://imdb.com/title/tt3704700/

Video
ID : 1
Format : AVC
Format/Info : Advanced Video Codec
Format profile : High@L4
Format settings, CABAC : Yes
Format settings, ReFrames : 5 frames
Codec ID : V_MPEG4/ISO/AVC
Duration : 1h 28mn
Bit rate : 4 491 Kbps
Width : 1 920 pixels
Height : 802 pixels
Display aspect ratio : 2.40:1
Frame rate mode : Constant
Frame rate : 23.976 fps
Color space : YUV
Chroma subsampling : 4:2:0
Bit depth : 8 bits
Scan type : Progressive
Bits/(Pixel*Frame) : 0.122
Stream size : 2.79 GiB (90%)
Title : Brain.on.Fire.2016.1080p.WEB-DL.DD5.1.H264-FGT
Language : English


Audio
ID : 2
Format : AC-3
Format/Info : Audio Coding 3
Mode extension : CM (complete main)
Format settings, Endianness : Big
Codec ID : A_AC3
Duration : 1h 28mn
Bit rate mode : Constant
Bit rate : 384 Kbps
Channel(s) : 6 channels
Channel positions : Front: L C R, Side: L R, LFE
Sampling rate : 48.0 KHz
Frame rate : 31.250 fps (1536 spf)
Compression mode : Lossy
Stream size : 244 MiB (8%)
Title : Brain.on.Fire.2016.1080p.WEB-DL.DD5.1.H264-FGT
Language : English
Default : Yes
Forced : No

Trackers

Refresh Leechers : Updated November 21, 2017

1. http://tracker.trackerfix.com:80/announce

2. udp://9.rarbg.me:2710/announce

3. udp://9.rarbg.to:2710/announce

Comments

You must log in to add a comment.

Embed Code

Sharing Widget

Related torrents

FILENAME SIZE SEEDS PEERS ADDED UPD
[i] Brain on Fire (2016) 720p Web-DL x264 AAC - Downloadhub
posted by downloadhub in Movies - Drama
718.34 MB 4 0 7 months 2 months
[i] Brain.on.Fire.2016.HDRip.350MB 355.52 MB 1 0 7 months 2 months
[i] Brain on Fire 2016 720p WEBRIP AC3 X264 MutzNutz 2.4 GB 0 0 7 months 2 months

Top Movies ( auto generated report )

FILENAME SIZE SEEDS PEERS ADDED UPD
[i] Geostorm (2017) [1080p] [YTS AG] 1.67 GB 4368 1091 6 days 6 hours
[i] Geostorm (2017) [720p] [YTS AG] 812.63 MB 4101 1355 6 days 6 hours
[i] Thor.Ragnarok.2017.HDRip.XviD.AC3-EVO[EtMovies] 1.61 GB 2564 1672 2 days 1 day
[i] Mollys Game 2017 DVDScr XVID AC3 HQ Hive CM8 1.79 GB 2420 691 6 days 19 hours
[i] The Man from Earth Holocene (2017) [720p] [YTS AG] 726.46 MB 2189 1099 5 days 4 days
[i] Jigsaw (2017) [720p] [YTS AG] 675.39 MB 2055 1016 6 days 17 hours
[i] Last Flag Flying (2017) [720p] [YTS AG] 903.74 MB 1947 1219 5 days 4 days
[i] Jigsaw (2017) [1080p] [YTS AG] 1.4 GB 1907 973 6 days 17 hours
[i] Thor.Ragnarok.2017.HDRip.XviD.AC3-EVO 1.6 GB 1860 1338 2 days 1 day
[i] The Man from Earth Holocene (2017) [1080p] [YTS AG] 1.51 GB 1803 773 5 days 4 days