Defective 2018 1080p WEB-DL DD 5 1 x264

DOWNLOAD TORRENT DOWNLOAD DOWNLOAD ANONYMOUS

Posted by moviefreak •1538 on February 14, 2018 in Movies » Sci-Fi , verified torrent

Size: 1.28 GB , Seeds: 5 , Peers: 0 ( Updated April 19, 2018 - Refresh )

* Download via Magnet Link , * To download files you need a Bittorrent Client , * How to download torrents from Bit Torrent Scene?

Scrape History ( seeds + peers )

Internal Files

Defective 2018 1080p WEB-DL DD 5.1 x264
Defective 2018 1080p WEB-DL DD 5.1 x264.mkv   1.28 GB

Hash Code

60e9c86cfae0389ac849f52631ffabe3fb6c057d

Description


SCREENSHOT

General
Format : Matroska
Format version : Version 4 / Version 2
File size : 1.28 GiB
Duration : 1 h 42 min
Overall bit rate : 1 795 kb/s

Video
ID : 1
Format : AVC
Format/Info : Advanced Video Codec
Format profile : High@L4.1
Format settings : CABAC / 4 Ref Frames
Format settings, CABAC : Yes
Format settings, ReFrames : 4 frames
Codec ID : V_MPEG4/ISO/AVC
Duration : 1 h 42 min
Bit rate : 1 600 kb/s
Width : 1 920 pixels
Height : 1 032 pixels
Display aspect ratio : 1.85:1
Frame rate mode : Constant
Frame rate : 23.976 (24000/1001) FPS
Color space : YUV
Chroma subsampling : 4:2:0
Bit depth : 8 bits
Scan type : Progressive
Bits/(Pixel*Frame) : 0.034
Stream size : 1.10 GiB (86%)
Writing library : x264 core 148 r2708 86b7198
Default : Yes
Forced : No

Audio
ID : 2
Format : AC-3
Format/Info : Audio Coding 3
Codec ID : A_AC3
Duration : 1 h 42 min
Bit rate mode : Constant
Bit rate : 256 kb/s
Channel(s) : 6 channels
Channel positions : Front: L C R, Side: L R, LFE
Sampling rate : 48.0 kHz
Frame rate : 31.250 FPS (1536 SPF)
Bit depth : 16 bits
Compression mode : Lossy
Stream size : 187 MiB (14%)
Language : English
Service kind : Complete Main
Default : Yes
Forced : No





SCREENSHOT
SCREENSHOT
SCREENSHOT
SCREENSHOT
SCREENSHOT
SCREENSHOT
SCREENSHOT

Trackers

Refresh Leechers : Updated April 19, 2018

1. udp://tracker.coppersurfer.tk:6969/announce

2. udp://tracker.leechers-paradise.org:6969/announce

3. udp://inferno.demonoid.pw:3391/announce

4. udp://tracker.tntvillage.scambioetico.org:2710/announce

5. udp://tracker.pirateparty.gr:6969/announce

6. udp://9.rarbg.com:2770/announce

7. udp://public.popcorn-tracker.org:6969/announce

8. udp://tracker.zer0day.to:1337/announce

9. http://bigfoot1942.sektori.org:6969/announce

10. udp://ipv4.tracker.harry.lu:80/announce

11. udp://shadowshq.yi.org:6969/announce

12. udp://tracker.vanitycore.co:6969/announce

13. udp://tracker.opentrackr.org:1337/announce

14. udp://explodie.org:6969/announce

15. udp://tracker.zer0day.to:1337/announce

16. udp://tracker.leechers-paradise.org:6969/announce

17. udp://coppersurfer.tk:6969/announce

Comments

You must log in to add a comment.

Embed Code

Sharing Widget

Top Movies ( auto generated report )

FILENAME SIZE SEEDS PEERS ADDED UPD
[i] Fahrenheit 451 (2018) [WEBRip] [720p] [YTS AM] 864.37 MB 2206 1124 1 day 6 hours
[i] Dark Crimes (2016) [WEBRip] [720p] [YTS AM] 793.49 MB 2029 1190 3 days 2 days
[i] Girl Lost (2018) [WEBRip] [720p] [YTS AM] 806.4 MB 1869 1102 3 days 2 days
[i] Fahrenheit 451 (2018) [WEBRip] [1080p] [YTS AM] 1.62 GB 1676 713 1 day 6 hours
[i] Dark Crimes (2016) [WEBRip] [1080p] [YTS AM] 1.49 GB 1647 730 3 days 2 days
[i] Burn Out (2017) [WEBRip] [720p] [YTS AM] 886.52 MB 1343 578 1 day 6 hours
[i] Girl Lost (2018) [WEBRip] [1080p] [YTS AM] 1.52 GB 1322 591 3 days 2 days
[i] Burn Out (2017) [WEBRip] [1080p] [YTS AM] 1.66 GB 693 250 1 day 6 hours
[i] Deadpool.2.2018.HDTS.XViD.AC3-ETRG 1.29 GB 644 408 4 days 3 days
[i] Death Wish 2018 HDRip XViD-ETRG
Movies - Action , Quality: Audio 10/10 - Video 10/10
704.75 MB 610 588 1 day 4 hours