Your IP Address is . Location is Your ISP and Government can track your torrent activity! Hide your IP with a VPN!

Lupin III - La lampada di Aladino (2008).H264.ita.Jpn.Sub.ita.iCV-MIRCrew

DOWNLOAD TORRENT DOWNLOAD DOWNLOAD ANONYMOUS

Posted by robbyrs3 •388 on September 12, 2017 in Anime » Cartoons , verified torrent

Size: 1.15 GB , Seeds: 9 , Peers: 4 ( Updated November 15, 2017 - Refresh )

* Download via Magnet Link , * To download files you need a Bittorrent Client , * How to download torrents from Bit Torrent Scene?

Scrape History ( seeds + peers )

Internal Files

Lupin III - La lampada di Aladino (2008).H264.ita.jpn.sub.ita.iCV-MIRCrew
Lupin III - La lampada di Aladino (2008).H264.ita.jpn.sub.ita.iCV-MIRCrew.ita.srt   86.26 KB
Lupin III - La lampada di Aladino (2008).H264.ita.jpn.sub.ita.iCV-MIRCrew.mkv   1.15 GB
www.icv-crew.org.txt   78 Byte

Hash Code

4e47378f8879a393c9262e3051e58d0ef3c0b218

Description

Lupin III - La lampada di Aladino (2008).H264.ita.Jpn.Sub.ita.iCV-MIRCrew

SCREENSHOT

SCREENSHOT
NO FOUND ONLY ORIGINAL RELEASE

SCREENSHOT

My release is always in double track audio italian and Original audio
for select it use VLC or dvd player home
not use wmp

Lupin III - La lampada di Aladino (2008)

SCREENSHOT

SCREENSHOT

SCREENSHOT

Autore Monkey Punch
Regia Tetsurō Amino
Char. design Satoshi Hirayama
Musiche Yūji Ōno
Studio TMS Entertainment
Rete Nippon Television
1ª TV 25 luglio 2008
Aspect ratio 4:3
Durata 90 min
Rete it. Hiro
1ª TV it. 14 marzo 2009

SCREENSHOT

*****************


Lupin III Kan'ichi Kurita Stefano Onofri
Daisuke Jigen Kiyoshi Kobayashi Sandro Pellegrini
Fujiko Mine Eiko Masuyama Alessandra Korompay
Goemon Ishikawa Makio Inoue Antonio Palumbo
Ispettore Koichi Zenigata Gorō Naya Rodolfo Bianchi
Colonnello Garlic Banjō Ginga Nicola Marcucci
Drew Misato Tanaka
Jodan Rokuro Naya
Dr. Eichmann Satoshi Sasaki Emilio Cappuccio
Adam Seijin Hagihara Valerio Sacco

SCREENSHOT

Lupin va alla ricerca della lampada magica di Aladino per donarla a Fujiko. Quando riesce a trovarla, evoca il Genio della lampada, una giovane e avvenente ragazza, che gli chiede di esprimere un desiderio, pena però il rimuovere i ricordi di metà vita, dalle 7.00 di sera alle 7.00 di mattina.....................

SCREENSHOT

Lupine goes looking for Aladdin's magic lamp to give it to Fujiko. When she finds her, she conjures up the genius of the lamp, a young, fluffy girl who asks her to express a desire, but it's worth removing half-life memories, from 7 am to 7 am in the morning

SCREENSHOT

SCREENSHOT
SCREENSHOT
SCREENSHOT
SCREENSHOT



SCREENSHOT


[spoiler]
General
Unique ID : 234199475442239505461164901322907313168 (0xB0312DA331C56FA6BB3BFBC65E95E410)
Complete name : Lupin III - La lampada di Aladino (2008).H264.ita.jpn.sub.ita.iCV-MIRCrew.mkv
Format : Matroska
Format version : Version 2
File size : 1.15 GiB
Duration : 1h 31mn
Overall bit rate : 1 793 Kbps
Movie name : Lupin III - La lampada di Aladino (2008).H264.ita.jpn.sub.ita.iCV-MIRCrew
Encoded date : UTC 2017-01-13T11:34:28Z
Writing application : mkvmerge v5.4.0 ('Piper') built on Mar 10 2012 13:34:39
Writing library : Lavf55.12.0

Video
ID : 1
Format : AVC
Format/Info : Advanced Video Codec
Format profile : Main@L4.0
Format settings, CABAC : Yes
Format settings, ReFrames : 4 frames
Muxing mode : Header stripping
Codec ID : V_MPEG4/ISO/AVC
Duration : 1h 31mn
Bit rate : 1 280 Kbps
Width : 688 pixels
Height : 516 pixels
Display aspect ratio : 4:3
Original display aspect ratio : 4:3
Frame rate mode : Variable
Frame rate : 25.000 fps
Color space : YUV
Chroma subsampling : 4:2:0
Bit depth : 8 bits
Scan type : Progressive
Bits/(Pixel*Frame) : 0.144
Stream size : 817 MiB (69%)
Title : Lupin III - La lampada di Aladino (2008).H264.ita.jpn.sub.ita.iCV-MIRCrew
Writing library : x264 core 142 r2479 dd79a61
Encoding settings : cabac=1 / ref=1 / deblock=1:0:0 / analyse=0x1:0x111 / me=hex / subme=2 / psy=1 / psy_rd=1.00:0.00 / mixed_ref=0 / me_range=16 / chroma_me=1 / trellis=0 / 8x8dct=0 / cqm=0 / deadzone=21,11 / fast_pskip=1 / chroma_qp_offset=0 / threads=12 / lookahead_threads=4 / sliced_threads=0 / nr=0 / decimate=1 / interlaced=0 / bluray_compat=0 / constrained_intra=0 / bframes=3 / b_pyramid=2 / b_adapt=1 / b_bias=0 / direct=1 / weightb=1 / open_gop=0 / weightp=1 / keyint=250 / keyint_min=25 / scenecut=40 / intra_refresh=0 / rc_lookahead=10 / rc=abr / mbtree=1 / bitrate=1280 / ratetol=1.0 / qcomp=0.60 / qpmin=0 / qpmax=69 / qpstep=4 / vbv_maxrate=20000 / vbv_bufsize=25000 / nal_hrd=none / filler=0 / ip_ratio=1.40 / aq=1:1.00
Language : Italian
Default : Yes
Forced : No
Color primaries : BT.709-5, BT.1361, IEC 61966-2-4, SMPTE RP177
Transfer characteristics : BT.709-5, BT.1361
Matrix coefficients : BT.709-5, BT.1361, IEC 61966-2-4 709, SMPTE RP177

Audio #1
ID : 2
Format : AC-3
Format/Info : Audio Coding 3
Mode extension : CM (complete main)
Muxing mode : Header stripping
Codec ID : A_AC3
Duration : 1h 31mn
Bit rate mode : Constant
Bit rate : 384 Kbps
Channel(s) : 6 channels
Channel positions : Front: L C R, Side: L R, LFE
Sampling rate : 48.0 KHz
Bit depth : 16 bits
Compression mode : Lossy
Delay relative to video : -5ms
Stream size : 252 MiB (21%)
Title : Surround
Language : Italian
Default : Yes
Forced : No

Audio #2
ID : 3
Format : MPEG Audio
Format version : Version 1
Format profile : Layer 3
Mode : Joint stereo
Mode extension : MS Stereo
Muxing mode : Header stripping
Codec ID : A_MPEG/L3
Codec ID/Hint : MP3
Duration : 1h 31mn
Bit rate mode : Constant
Bit rate : 128 Kbps
Channel(s) : 2 channels
Sampling rate : 48.0 KHz
Compression mode : Lossy
Delay relative to video : -23ms
Stream size : 84.0 MiB (7%)
Title : Stereo
Writing library : LAME
Language : Japanese
Default : No
Forced : No

Text
ID : 4
Format : VobSub
Muxing mode : zlib
Codec ID : S_VOBSUB
Codec ID/Info : The same subtitle format used on DVDs
Language : Italian
Default : No
Forced : No

Menu
00:00:00.000 : :Il furto
00:17:24.920 : :Il genio della lampada
00:22:41.560 : :Il Colonnello Aglio
00:30:26.120 : :Il treno
00:35:43.680 : :Il microchip
00:42:58.640 : :Adam e Drew
00:53:09.520 : :Notte dimenticata
00:57:22.280 : :Senza cattivi pensieri
01:06:16.480 : :Diventare una scimmia
01:13:11.320 : :Lupin sfida Eichmann
01:17:31.560 : :Conto alla rovescia





[/spoiler]

Trackers

Refresh Leechers : Updated November 15, 2017

1. udp://tracker.coppersurfer.tk:6969/announce

2. udp://tracker.opentrackr.org:1337/announce

3. udp://tracker.leechers-paradise.org:6969/announce

4. udp://9.rarbg.com:2710/announce

5. udp://9.rarbg.to:2710/announce

6. udp://9.rarbg.me:2710/announce

7. udp://glotorrents.pw:6969/announce

8. udp://tracker.openbittorrent.com:80/announce

9. udp://tracker.pubt.net:2710/announce

10. udp://tracker.ilibr.org:6969/announce

11. udp://tracker.ilibr.org:80/announce

12. udp://zer0day.to:1337/announce

13. udp://tracker.zer0day.to:1337/announce

14. udp://p4p.arenabg.com:1337/announce

15. udp://p4p.arenabg.ch:1337/announce

16. udp://explodie.org:6969/announce

17. udp://eddie4.nl:6969/announce

Comments

You must log in to add a comment.

Embed Code

Sharing Widget

Related torrents

FILENAME SIZE SEEDS PEERS ADDED UPD
[i] Lupin 3rd - La Lampada di Aladino [DVDrip ITA] TNT Village 599.15 MB 1 0 6 years 7 months
[i] Lupin III - La lampada di Aladino (Tetsuro Amino, 2008) [BDRip1080p Ita-Jap][A.C.U.M.] 2.19 GB 1 2 4 years 4 months

Top Anime ( auto generated report )

FILENAME SIZE SEEDS PEERS ADDED UPD
[i] Card Captor Sakura S02e15-21[BDmux 1080p - H264 - Ita Jap Ac3 - Cartelli SoftSub Ita] 6.15 GB 13 5 5 days 1 day
[i] Card Captor Sakura S02e22-28 [BDmux 1080p - H264 - Ita Jap Ac3 - Cartelli SoftSub Ita] 5.73 GB 13 5 1 day 14 hours