Your IP Address is . Location is Your ISP and Government can track your torrent activity! Hide your IP with a VPN!

Suicide Squad Hell to Pay 2018 BRrip X264 LLG

DOWNLOAD TORRENT DOWNLOAD PROTECT YOUR PRIVACY

Posted by LifeLongg •596 on April 17, 2018 in Movies » Animation , verified torrent

Size: 933.45 MB , Seeds: 3 , Peers: 3 ( Updated April 23, 2018 - Refresh )

* Download via Magnet Link , * To download files you need a Bittorrent Client , * How to download torrents from Bit Torrent Scene?

Scrape History ( seeds + peers )

Internal Files

Suicide.Squad.Hell.to.Pay.2018.BRrip.X264.LLG
Sample.ts   12.32 MB
Suicide.Squad.Hell.to.Pay.2018.BRrip.X264.LLG.mp4   921.13 MB

Hash Code

d7ec0589f5eb65750e3245b0f2d657f7970307cc

Description

SCREENSHOT

SCREENSHOT

******************************Thumbnail:**********************

SCREENSHOT

******************************Screenshots:********************

Screenshot 1

Screenshot 2

Screenshot 3

Screenshot 4

Screenshot 5

Screenshot 6

Screenshot 7

Screenshot 8

Screenshot 9

Screenshot 0

**************************************************************

Complete name : Suicide.Squad.Hell.to.Pay.2018.BRrip.X264.LLG.mp4
Format : MPEG-4
Format profile : Base Media
Codec ID : isom (isom/iso2/avc1/mp41)
File size : 921 MiB
Duration : 1 h 26 min
Overall bit rate : 1 497 kb/s
Writing application : Lavf57.56.101

Video
ID : 1
Format : AVC
Format/Info : Advanced Video Codec
Format profile : High@L3
Format settings : CABAC / 4 Ref Frames
Format settings, CABAC : Yes
Format settings, RefFrames : 4 frames
Codec ID : avc1
Codec ID/Info : Advanced Video Coding
Duration : 1 h 26 min
Bit rate : 1 200 kb/s
Width : 720 pixels
Height : 400 pixels
Display aspect ratio : 16:9
Frame rate mode : Constant
Frame rate : 23.976 (23976/1000) FPS
Color space : YUV
Chroma subsampling : 4:2:0
Bit depth : 8 bits
Scan type : Progressive
Bits/(Pixel*Frame) : 0.174
Stream size : 760 MiB (83%)

Audio
ID : 2
Format : AC-3
Format/Info : Audio Coding 3
Codec ID : ac-3
Duration : 1 h 26 min
Bit rate mode : Constant
Bit rate : 256 kb/s
Channel(s) : 6 channels
Channel positions : Front: L C R, Side: L R, LFE
Sampling rate : 48.0 kHz
Frame rate : 31.250 FPS (1536 SPF)
Bit depth : 16 bits
Compression mode : Lossy
Stream size : 158 MiB (17%)
Service kind : Complete Main
Default : Yes
Alternate group : 1

Trackers

Refresh Leechers : Updated April 23, 2018

1. udp://tracker.openbittorrent.com:80/announce

2. udp://tracker.opentrackr.org:1337/announce

Comments

You must log in to add a comment.

Embed Code

Sharing Widget

Related torrents

FILENAME SIZE SEEDS PEERS ADDED UPD
[i] Suicide Squad Hell to Pay (2018) [BluRay] [720p] [YTS AM] 739.38 MB 1353 347 1 week 1 day
[i] Suicide Squad Hell to Pay.2018.HDRip.XviD.AC3-EVO 1.1 GB 979 233 4 weeks 1 week
[i] Suicide Squad Hell to Pay (2018) [BluRay] [1080p] [YTS AM] 1.38 GB 932 192 1 week 1 day
[i] Suicide Squad Hell to Pay.2018.720p.WEB-DL.H264.AC3-EVO[N1C] 2.68 GB 121 18 4 weeks 1 week
[i] Suicide.Squad.Hell.to.Pay.2018.WEB-DL.x264-FGT 849.65 MB 120 51 4 weeks 3 weeks
[i] Suicide Squad Hell to Pay.2018..HDRip.AC3.X264-CMRG[EtMovies] 884 MB 67 16 4 weeks 3 weeks
[i] Suicide Squad Hell to Pay 2018 720p WEB-DL x264 ESub [MW]
posted by moviefreak in Movies - Animation
827.26 MB 32 7 3 weeks 1 week
[i] Suicide Squad Hell to Pay 2018 480p WEB-DL x264-RMTeam 280.15 MB 30 10 3 weeks 1 week
[i] Suicide Squad Hell to Pay 2018 720p BRRip x264 ESub [MW]
posted by moviefreak in Movies - Animation
815 MB 20 3 1 week 4 days
[i] Legion samobójców Piekielna misja - Suicide Squad Hell To Pay (2018) (H264)(PROAC)(Lektor Pl)
posted by PROAC in Movies - Animation
811.69 MB 14 6 2 days 1 day

Top Movies ( auto generated report )

FILENAME SIZE SEEDS PEERS ADDED UPD
[i] Pacific Rim 2 Uprising 2018 720p korsub hdrip x264 aac2 0-stuttershit 2.75 GB 3342 743 2 days 1 day
[i] Genesis (2018) [WEBRip] [720p] [YTS AM] 965.85 MB 1369 860 2 days 1 day
[i] The Debt Collector (2018) [BluRay] [720p] [YTS AM] 818.36 MB 1225 444 2 days 5 hours
[i] downloadhub in Sonu Ke Titu Ki Sweety (2018) Hindi 720p HDRip x264 AAC ESubs - Downloadhub 1.06 GB 1297 910 4 days 2 days
[i] Corbin Nash (2018) [WEBRip] [720p] [YTS AM] 824.69 MB 1240 725 2 days 1 day
[i] Genesis (2018) [WEBRip] [1080p] [YTS AM] 1.81 GB 1010 581 2 days 1 day
[i] Corbin Nash (2018) [WEBRip] [1080p] [YTS AM] 1.53 GB 529 213 2 days 5 hours
[i] The Debt Collector (2018) [BluRay] [1080p] [YTS AM] 1.54 GB 774 406 2 days 1 day
[i] Looking Glass (2018) Nicolas Cage.720p.H264.italian.English.Ac3-5.1.sub.ita.eng.MIRCrew 1.89 GB 460 138 4 days 5 hours
[i] Avicii True Stories (2017) [WEBRip] [1080p] [YTS AM] 1.54 GB 762 255 1 day 17 hours