Supernatural.S13E18.720p.HDTV.x264-SVA[rarbg]

Posted on April 13, 2018 in Series » Misc , verified torrent

Size: 936.32 MB , Seeds: 56 , Peers: 14 ( Updated July 21, 2018 - Refresh )

* Download via Magnet Link , * To download files you need a Bittorrent Client , * How to download torrents from Bit Torrent Scene?

Scrape History ( seeds + peers )

Internal Files

Supernatural.S13E18.720p.HDTV.x264-SVA[rarbg]
RARBG.txt   30 Byte
sample-supernatural.s13e18.720p.hdtv.x264-sva.mkv   23.52 MB
Supernatural.S13E18.720p.HDTV.x264-SVA.mkv   912.59 MB
supernatural.s13e18.720p.hdtv.x264-sva.nfo   61 Byte

Hash Code

956e700b8ffa6d28584acf76ccfcf7c0436b9b92

Description

Supernatural.S13E18.720p.HDTV.x264-SVA


Season 13, Episode 18 – “Bring ’em Back Alive”

Lucifer rules over heaven but things aren’t going exactly as planned, exasperating his first lady, Jo. Sam and Castiel are perplexed by the return of Gabriel. Meanwhile, Dean gets one step closer to finding Mary and Jack.


Video

ID : 1

Format : AVC

Format/Info : Advanced Video Codec

Format profile : [email protected]
Format settings : CABAC / 5 Ref Frames

Format settings, CABAC : Yes

Format settings, RefFrames : 5 frames

Codec ID : V_MPEG4/ISO/AVC

Duration : 41 min 41 s

Bit rate : 2 615 kb/s

Width : 1 280 pixels

Height : 718 pixels

Display aspect ratio : 16:9

Frame rate mode : Constant

Frame rate : 23.976 (24000/1001) FPS

Color space : YUV

Chroma subsampling : 4:2:0

Bit depth : 8 bits

Scan type : Progressive

Bits/(Pixel*Frame) : 0.119

Stream size : 780 MiB (85%)

Writing library : x264 core 155 r2901 7d0ff22

Encoding settings : cabac=1 / ref=5 / deblock=1:0:0 / analyse=0x3:0x113 / me=hex / subme=8 / psy=1 / psy_rd=1.00:0.00 / mixed_ref=1 / me_range=16 / chroma_me=1 / trellis=2 / 8x8dct=1 / cqm=0 / deadzone=21,11 / fast_pskip=1 / chroma_qp_offset=-2 / threads=22 / lookahead_threads=3 / sliced_threads=0 / nr=0 / decimate=1 / interlaced=0 / bluray_compat=0 / constrained_intra=0 / bframes=3 / b_pyramid=2 / b_adapt=1 / b_bias=0 / direct=3 / weightb=1 / open_gop=0 / weightp=2 / keyint=250 / keyint_min=23 / scenecut=40 / intra_refresh=0 / rc_lookahead=50 / rc=crf / mbtree=1 / crf=18.0 / qcomp=0.60 / qpmin=0 / qpmax=69 / qpstep=4 / ip_ratio=1.40 / aq=1:1.00

Default : Yes

Forced : No

Color range : Limited

Matrix coefficients : BT.709


Audio

ID : 2

Format : AC-3

Format/Info : Audio Coding 3

Format settings, Endianness : Big

Codec ID : A_AC3

Duration : 41 min 41 s

Bit rate mode : Constant

Bit rate : 384 kb/s

Channel(s) : 6 channels

Channel positions : Front: L C R, Side: L R, LFE

Sampling rate : 48.0 kHz

Frame rate : 31.250 FPS (1536 SPF)

Bit depth : 16 bits

Compression mode : Lossy

Stream size : 115 MiB (13%)

Service kind : Complete Main

Default : Yes

Forced : No


SCREENSHOT

Torrent location

https://www.1337x.to/torrent/2921662/Supernatural-S13E18-720p-HDTV-x264-SVA-rarbg/

Comments

You must log in to add a comment.

Embed Code

Sharing Widget

Top Series ( auto generated report )

FILENAME SIZE SEEDS PEERS ADDED UPD
[i] The.Originals.S05E11.WEB.x264-TBS[ettv] 492.63 MB 1329 359 2 days 1 day
[i] Suits.S08E01.720p.HDTV.x264-AVS [rarbg] 735 MB 930 186 2 days 2 days
[i] Condor.S01E06.WEBRip.x264-PBS[ettv] 275.7 MB 903 132 2 days 1 day
[i] Robin.Williams.Come.Inside.My.Mind.2018.HDTV.x264-aAF[ettv] 579.08 MB 744 166 4 days 3 days
[i] Wentworth.S06E05.WEBRip.x264-MFOSHiT[ettv] 388.58 MB 588 81 4 days 3 days
[i] Animal.Kingdom.US.S03E08.WEBRip.x264-TBS[ettv] 339.35 MB 523 79 4 days 3 days
[i] Who.is.America.S01E01.HDTV.x264-aAF[ettv] 142.48 MB 521 58 5 days 4 days
[i] Salvation.S02E04.HDTV.x264-SVA[ettv] 221.73 MB 472 39 4 days 4 days
[i] MasterChef.Australia.S10E54.HDTV.x264-SPC[ettv] 575.72 MB 421 56 2 days 1 day
[i] Yellowstone.2018.S01E04.WEBRip.x264-TBS[ettv] 345.82 MB 399 52 2 days 2 days