Your IP Address is . Location is Your ISP and Government can track your torrent activity! Hide your IP with a VPN!

The Tourist (2010) 720p BluRay x264 Dual Audio [Hindi DD 5.1-English 5.1] - MSub ~ Ranvijay

DOWNLOAD TORRENT DOWNLOAD DOWNLOAD ANONYMOUS

Posted on December 7, 2017 in Movies » Misc

Size: 3.86 GB , Seeds: 21 , Peers: 33 ( Updated December 13, 2017 - Refresh )

* Download via Magnet Link , * To download files you need a Bittorrent Client , * How to download torrents from Bit Torrent Scene?

Scrape History ( seeds + peers )

Internal Files

The Tourist (2010) 720p BluRay x264 Dual Audio [Hindi DD 5.1-English 5.1] - MSub ~ Ranvijay.mkv
The Tourist (2010) 720p BluRay x264 Dual Audio [Hindi DD 5.1-English 5.1] - MSub ~ Ranvijay.mkv   3.86 GB

Hash Code

a965efbd43eef7ecffa4f1d4ce190986b74f8a3b

Description

SCREENSHOT

The Tourist (2010) 720p BluRay x264 Dual Audio [Hindi DD 5.1-English 5.1] - MSub ~ Ranvijay

SCREENSHOT

SCREENSHOT

Format                                   : Matroska

Format version                           : Version 4 / Version 2

File size                                : 3.86 GiB

Duration                                 : 1 h 43 min

Overall bit rate                         : 5 341 kb/s

Movie name                               : The Tourist (2010) 720p BluRay x264 Dual Audio [Hindi DD 5.1-English 5.1] - MSub ~ Ranvijay


Video

ID                                       : 1

Format                                   : AVC

Duration                                 : 1 h 43 min

Bit rate                                 : 4 276 kb/s

Width                                    : 1 280 pixels

Height                                   : 534 pixels

Display aspect ratio                     : 2.40:1

Frame rate mode                          : Constant

Frame rate                               : 23.976 (24000/1001) FPS

Stream size                              : 3.09 GiB (80%)

Language                                 : English

Default                                  : Yes

Forced                                   : No


Audio #1

ID                                       : 2

Format                                   : AC-3

Format/Info                              : Audio Coding 3

Codec ID                                 : A_AC3

Duration                                 : 1 h 43 min

Bit rate mode                            : Constant

Bit rate                                 : 640 kb/s

Channel(s)                               : 6 channels

Channel positions                        : Front: L C R, Side: L R, LFE

Sampling rate                            : 48.0 kHz

Frame rate                               : 31.250 FPS (1536 SPF)

Bit depth                                : 16 bits

Compression mode                         : Lossy

Stream size                              : 474 MiB (12%)

Title                                    : ~Ranvijay~

Language                                 : Hindi

Service kind                             : Complete Main

Default                                  : Yes

Forced                                   : Yes


Audio #2

ID                                       : 8

Format                                   : AC-3

Format/Info                              : Audio Coding 3

Codec ID                                 : A_AC3

Duration                                 : 1 h 43 min

Bit rate mode                            : Constant

Bit rate                                 : 384 kb/s

Channel(s)                               : 6 channels

Channel positions                        : Front: L C R, Side: L R, LFE

Sampling rate                            : 48.0 kHz

Frame rate                               : 31.250 FPS (1536 SPF)

Bit depth                                : 16 bits

Compression mode                         : Lossy

Stream size                              : 284 MiB (7%)

Title                                    : ~Ranvijay~

Language                                 : English

Service kind                             : Complete Main

Default                                  : No

Forced                                   : No


Text #1

ID                                       : 3

Format                                   : PGS

Muxing mode                              : zlib

Codec ID                                 : S_HDMV/PGS

Codec ID/Info                            : Picture based subtitle format used on BDs/HD-DVDs

Duration                                 : 1 h 35 min

Bit rate                                 : 19.3 kb/s

Count of elements                        : 1676

Stream size                              : 13.2 MiB (0%)

Title                                    : ~Ranvijay~

Language                                 : Hindi

Default                                  : Yes

Forced                                   : No


Text #2

ID                                       : 4

Format                                   : PGS

Muxing mode                              : zlib

Codec ID                                 : S_HDMV/PGS

Codec ID/Info                            : Picture based subtitle format used on BDs/HD-DVDs

Duration                                 : 1 h 35 min

Bit rate                                 : 20.3 kb/s

Count of elements                        : 1638

Stream size                              : 13.8 MiB (0%)

Title                                    : ~Ranvijay~

Language                                 : English

Default                                  : No

Forced                                   : No


Text #3

ID                                       : 5

Format                                   : PGS

Muxing mode                              : zlib

Codec ID                                 : S_HDMV/PGS

Codec ID/Info                            : Picture based subtitle format used on BDs/HD-DVDs

Duration                                 : 1 h 42 min

Bit rate                                 : 52.2 kb/s

Count of elements                        : 2982

Stream size                              : 38.5 MiB (1%)

Title                                    : ~Ranvijay~

Language                                 : English

Default                                  : No

Forced                                   : No


Text #4

ID                                       : 6

Format                                   : UTF-8

Codec ID                                 : S_TEXT/UTF8

Codec ID/Info                            : UTF-8 Plain Text

Duration                                 : 1 h 35 min

Bit rate                                 : 35 b/s

Count of elements                        : 819

Stream size                              : 24.7 KiB (0%)

Title                                    : ~Ranvijay~

Language                                 : English

Default                                  : No

Forced                                   : No


Text #5

ID                                       : 7

Format                                   : UTF-8

Codec ID                                 : S_TEXT/UTF8

Codec ID/Info                            : UTF-8 Plain Text

Duration                                 : 1 h 42 min

Bit rate                                 : 92 b/s

Count of elements                        : 1488

Stream size                              : 69.5 KiB (0%)

Title                                    : ~Ranvijay~

Language                                 : English

Default                                  : No

Forced                                   : No


Menu

00:00:00.000                             : en:00:00:00.000

00:08:05.860                             : en:00:08:05.860

00:11:30.857                             : en:00:11:30.857

00:17:08.277                             : en:00:17:08.277

00:25:06.672                             : en:00:25:06.672

00:30:27.117                             : en:00:30:27.117

00:34:13.009                             : en:00:34:13.009

00:40:59.582                             : en:00:40:59.582

00:49:29.842                             : en:00:49:29.842

00:55:22.736                             : en:00:55:22.736

01:00:55.944                             : en:01:00:55.944

01:06:24.314                             : en:01:06:24.314

01:12:52.535                             : en:01:12:52.535

01:17:40.739                             : en:01:17:40.739

01:24:38.365                             : en:01:24:38.365

01:30:16.536                             : en:01:30:16.536

SCREENSHOT

SCREENSHOT
SCREENSHOT
SCREENSHOT
SCREENSHOT
SCREENSHOT
SCREENSHOT
SCREENSHOT
SCREENSHOT
SCREENSHOT
SCREENSHOT
SCREENSHOT
SCREENSHOT
SCREENSHOT
SCREENSHOT
SCREENSHOT
SCREENSHOT
SCREENSHOT
SCREENSHOT

Torrent location

https://www.1337x.to/torrent/2645870/The-Tourist-2010-720p-BluRay-x264-Dual-Audio-Hindi-DD-5-1-English-5-1-MSub-Ranvijay/

Trackers

Refresh Leechers : Updated December 13, 2017

1. http://bigfoot1942.sektori.org:6969/announce

2. http://tracker2.wasabii.com.tw:6969/announce

3. http://tracker.opentrackr.org/announce

4. http://announce.torrentsmd.com:6969/announce

5. http://tracker.trackerfix.com/announce

6. http://tracker.opentrackr.org/announce

7. udp://explodie.org:6969/announce

8. udp://mgtracker.org:6969/announce

9. udp://asnet.pw:2710/announce

10. udp://tracker.mgtracker.org:2710/announce

11. udp://tracker4.piratux.com:6969/announce

12. udp://tracker.trackerfix.com:80/announce

13. udp://tracker.pomf.se:80/announce

14. udp://tracker.x4w.co:6969/announce

15. udp://castradio.net:6969/announce

16. udp://ipv4.tracker.harry.lu:80/announce

17. udp://tracker.mg64.net:6881/announce

18. udp://tracker.sktorrent.net:6969/announce

19. udp://tracker.blackunicorn.xyz:6969/announce

20. udp://tracker.internetwarriors.net:1337/announce

21. udp://public.popcorn-tracker.org:6969/announce

22. udp://glotorrents.pw:6969/announce

23. udp://tracker.vanitycore.co:6969/announce

24. udp://tracker.trackerfix.com:80/announce

25. udp://p4p.arenabg.ch:1337/announce

26. udp://9.rarbg.me:2710/announce

27. udp://tracker.zer0day.to:1337/announce

28. udp://tracker.opentrackr.org:1337/announce

29. udp://tracker.pirateparty.gr:6969/announce

30. udp://9.rarbg.to:2710/announce

31. udp://eddie4.nl:6969/announce

32. udp://tracker.coppersurfer.tk:6969/announce

33. udp://tracker.leechers-paradise.org:6969/announce

34. udp://coppersurfer.tk:6969/announce

35. udp://tracker.opentrackr.org:1337/announce

36. udp://shadowshq.yi.org:6969/announce

37. udp://public.popcorn-tracker.org:6969/announce

38. udp://eddie4.nl:6969/announce

39. udp://p4p.arenabg.ch:1337/announce

40. udp://9.rarbg.me:2730/announce

41. udp://ipv4.tracker.harry.lu:80/announce

42. udp://9.rarbg.to:2790/announce

43. udp://tracker.pirateparty.gr:6969/announce

44. udp://tracker.zer0day.to:1337/announce

45. udp://tracker.leechers-paradise.org:6969/announce

46. udp://tracker.coppersurfer.tk:6969/announce

47. udp://p4p.arenabg.com:1337/announce

Comments

You must log in to add a comment.

Embed Code

Sharing Widget

Related torrents

FILENAME SIZE SEEDS PEERS ADDED UPD
[i] The.Tourist.2010.720p.Bluray.x264.anoXmous 700.3 MB 57 9 5 years 7 months
[i] The Tourist (2010) BluRay 720p x264 DTS-MySiLUA 4.38 GB 0 0 6 years 8 months
[i] The.Tourist.2010.720p.BluRay.x264-AVS720 4.4 GB 0 0 6 years 8 months
[i] The Tourist 2010 BluRay 720p x264 AC3 WOFEI 2.05 GB 0 0 6 years 8 months
[i] The Tourist 2010 720p Bluray x264 Tabsman[H33T](HDScene-Release) 1.06 GB 0 1 6 years 8 months
[i] The Tourist 2010 Bluray 720p Dual Audio - Henry[-=KSRR=-] 547.3 MB 0 0 6 years 8 months
[i] The.Tourist.2010.BluRay.720p.x264-AMp47 2.25 GB 0 0 6 years 8 months
[i] The Tourist 2010 720p BluRay x264 AC3 - Ozlem 804 MB 0 0 4 years 5 months
[i] Dark.Tourist.2012.LIMITED.720p.BluRay.x264-VETO
posted by harks87 in Movies - Drama
3.32 GB 0 0 3 years 5 months
[i] Tourist.Trap.1979.720p.BluRay.x264-PublicHD 3.5 GB 0 1 3 years 5 months

Top Movies ( auto generated report )

FILENAME SIZE SEEDS PEERS ADDED UPD
[i] The Mountain Between Us (2017) [720p] [YTS AG] 816.25 MB 5103 3417 1 day 19 hours
[i] The Mountain Between Us (2017) [1080p] [YTS AG] 1.7 GB 3700 2235 1 day 19 hours
[i] Flatliners (2017) [720p] [YTS AG] 807.91 MB 3451 2428 1 day 19 hours
[i] Stronger (2017) [720p] [YTS AG] 865.1 MB 2998 1923 5 days 4 days
[i] Flatliners (2017) [1080p] [YTS AG] 1.67 GB 2824 1770 1 day 19 hours
[i] The LEGO Ninjago Movie (2017) [720p] [YTS AG] 747.68 MB 2815 1483 5 days 4 days
[i] The.Snowman.2017.HC.WEBRip.x264-STUTTERSHIT[rarbg] 1.02 GB 1791 791 4 days 3 days
[i] Victoria & Abdul (2017) [720p] [YTS AG] 812.01 MB 1692 973 5 days 4 days
[i] Victoria & Abdul (2017) [1080p] [YTS AG] 1.69 GB 1536 761 5 days 4 days
[i] Stronger (2017) [1080p] [YTS AG] 1.8 GB 1467 462 5 days 2 days