15 17 To Paris 2018 CAM Clean English Audio LLG

Posted by LifeLongg •1223 on February 14, 2018 in Movies » Drama , verified torrent

Size: 1.01 GB , Seeds: 5 , Peers: 1 ( Updated August 2, 2018 - Refresh )

* Download via Magnet Link , * To download files you need a Bittorrent Client , * How to download torrents from Bit Torrent Scene?

Scrape History ( seeds + peers )

Internal Files

15.17.To Paris.2018.CAM.Clean.English.Audio.LLG
Sample.ts   9.59 MB
15.17.To Paris.2018.CAM.Clean.English.Audio.LLG.mp4   1 GB

Hash Code

d25a4841b09001c60dc6ce95f9c4202200ceb40c

Description

******************************Thumbnail:**********************

SCREENSHOT

******************************Screenshots:********************

Screenshot 1

Screenshot 2

Screenshot 3

Screenshot 4

Screenshot 5

Screenshot 6

Screenshot 7

Screenshot 8

Screenshot 9

Screenshot 0

Complete name : 15.17.To Paris.2018.CAM.Clean.English.Audio.LLG.mp4
Format : MPEG-4
Format profile : Base Media
Codec ID : isom (isom/iso2/avc1/mp41)
File size : 1.00 GiB
Duration : 1 h 28 min
Overall bit rate : 1 626 kb/s
Writing application : Lavf57.56.101

Video
ID : 1
Format : AVC
Format/Info : Advanced Video Codec
Format profile : [email protected]
Format settings : CABAC / 4 Ref Frames
Format settings, CABAC : Yes
Format settings, RefFrames : 4 frames
Codec ID : avc1
Codec ID/Info : Advanced Video Coding
Duration : 1 h 28 min
Bit rate : 1 500 kb/s
Width : 1 280 pixels
Height : 408 pixels
Display aspect ratio : 3.137
Frame rate mode : Constant
Frame rate : 29.970 (29970/1000) FPS
Color space : YUV
Chroma subsampling : 4:2:0
Bit depth : 8 bits
Scan type : Progressive
Bits/(Pixel*Frame) : 0.096
Stream size : 942 MiB (92%)


Audio
ID : 2
Format : AC-3
Format/Info : Audio Coding 3
Codec ID : ac-3
Duration : 1 h 28 min
Bit rate mode : Constant
Bit rate : 128 kb/s
Channel(s) : 2 channels
Channel positions : Front: L R
Sampling rate : 48.0 kHz
Frame rate : 31.250 FPS (1536 SPF)
Bit depth : 16 bits
Compression mode : Lossy
Stream size : 80.7 MiB (8%)
Service kind : Complete Main
Default : Yes
Alternate group : 1

Trackers

Refresh Leechers : Updated August 2, 2018

1. udp://tracker.openbittorrent.com:80/announce

2. udp://tracker.opentrackr.org:1337/announce

Comments

You must log in to add a comment.

Embed Code

Sharing Widget

Related torrents

FILENAME SIZE SEEDS PEERS ADDED UPD
[i] The 15 17 to Paris (2018) [BluRay] [1080p] [YTS AM] 1.5 GB 237 56 3 months 1 month
[i] The 15 17 to Paris (2018) [WEBRip] [720p] [YTS AM] 796.45 MB 145 14 3 months 5 days
[i] The 15 17 to Paris (2018) [BluRay] [720p] [YTS AM] 801.01 MB 127 35 3 months 1 month
[i] Paris Can Wait (2016) [720p] [YTS AG] 685.51 MB 106 16 10 months 4 months
[i] The 15 17 to Paris (2018) [WEBRip] [1080p] [YTS AM] 1.5 GB 105 12 3 months 5 days
[i] The 15.17 to Paris - Ore 15.17 - Attacco al treno (2018).720p.H264.italian.English.Ac3-5.1.sub.ita.eng.MIRCrew
posted by robbyrs3 in Movies - Drama
1.79 GB 100 14 2 months 1 week
[i] Paris Can Wait (2016) [1080p] [YTS AG] 1.41 GB 74 12 10 months 4 months
[i] The.15.17.to.Paris.2018.HDRip.XviD.AC3-EVO[EtMovies] 1.42 GB 42 16 3 months 6 days
[i] GFRevenge - Paris Lincoln, Kimmy Granger, Audrey Grace, Liz Leigh - Dirty Sluts In The Tub 435.15 MB 35 5 9 months 3 months
[i] Keeping.Up.With.The.Kardashians.S13E02.Paris.WEB-DL.x264-PJ219.mp4 404.82 MB 29 3 1 year 4 months

Top Movies ( auto generated report )

FILENAME SIZE SEEDS PEERS ADDED UPD
[i] The Meg 2018 HDCAM XViD AC3-ETRG 1.26 GB 806 669 3 days 2 days
[i] TAG 2018 BRRip XViD-ETRG 705.11 MB 690 375 3 days 2 days
[i] Skyscraper.2018.HC.HDRip.XviD.AC3-EVO 1.36 GB 603 204 3 days 1 day
[i] The Package 2018 HDRip XViD-ETRG 704.87 MB 536 430 4 days 3 days
[i] Skyscraper.2018.720p.HC.HDRip.X264.AC3-EVO 2.53 GB 456 207 3 days 2 days
[i] The Spy Who Dumped Me 2018 HDCAM XViD AC3-ETRG 1.25 GB 455 395 2 days 1 day
[i] Love at Sea 2018 Hallmark 720p HDTV X264 Solar 1.08 GB 283 93 1 day 15 hours
[i] Hotel Artemis 2018 HDCAM XViD AC3-ETRG 1.17 GB 261 209 3 days 2 days
[i] Skyscraper 2018 720p HC HDRip x264 Dual Audio [Hindi - English] [MW] 916.04 MB 241 195 3 days 2 days
[i] 2047 - Virtual Revolution 720p h264 ita eng sub ita fre-MIRCrew 1.8 GB 231 176 3 days 2 days