Arrow.S06E13.WEBRip.x264-ION10

Posted on February 9, 2018 in Series » Misc , verified torrent

Size: 410.25 MB , Seeds: 8 , Peers: 2 ( Updated July 28, 2018 - Refresh )

* Download via Magnet Link , * To download files you need a Bittorrent Client , * How to download torrents from Bit Torrent Scene?

Scrape History ( seeds + peers )

Internal Files

Arrow.S06E13.WEBRip.x264-ION10
Arrow.S06E13.WEBRip.x264-ION10.mp4   409.12 MB
RARBG.txt   30 Byte
2_Eng.srt   52.47 KB
3_Eng.srt   54.19 KB

Hash Code

aa26ec0d35a545e555d5e485a0be9d735d55848b

Description

Arrow.S06E13.WEBRip.x264-ION10


Season 06, Episode 13 – “The Devil’s Greatest Trick”
Cayden James discovers a secret about the Green Arrow that pushes him over the edge. Knowing everyone and everything he loves is in danger, Oliver must decide if he can do this alone or if he needs to turn to his old teammates for help. William starts to demand more of Oliver’s time.

Video

ID : 1

Format : AVC

Format/Info : Advanced Video Codec

Format profile : [email protected]
Format settings : CABAC / 5 Ref Frames

Format settings, CABAC : Yes

Format settings, RefFrames : 5 frames

Codec ID : avc1

Codec ID/Info : Advanced Video Coding

Duration : 42 min 22 s

Bit rate : 1 100 kb/s

Width : 720 pixels

Height : 400 pixels

Display aspect ratio : 16:9

Frame rate mode : Constant

Frame rate : 23.976 (24000/1001) FPS

Color space : YUV

Chroma subsampling : 4:2:0

Bit depth : 8 bits

Scan type : Progressive

Bits/(Pixel*Frame) : 0.159

Stream size : 330 MiB (81%)

Title : RARBG - Arrow.S06E13.WEBRip.x264-ION10

Writing library : x264 core 152 r2851M ba24899

Encoding settings : cabac=1 / ref=5 / deblock=1:-1:-1 / analyse=0x3:0x113 / me=umh / subme=9 / psy=1 / psy_rd=1.00:0.15 / mixed_ref=1 / me_range=16 / chroma_me=1 / trellis=2 / 8x8dct=1 / cqm=0 / deadzone=21,11 / fast_pskip=1 / chroma_qp_offset=-3 / threads=12 / lookahead_threads=1 / sliced_threads=0 / nr=0 / decimate=1 / interlaced=0 / bluray_compat=0 / constrained_intra=0 / bframes=3 / b_pyramid=2 / b_adapt=2 / b_bias=0 / direct=3 / weightb=1 / open_gop=0 / weightp=2 / keyint=250 / keyint_min=23 / scenecut=40 / intra_refresh=0 / rc_lookahead=50 / rc=abr / mbtree=1 / bitrate=1100 / ratetol=1.0 / qcomp=0.60 / qpmin=0 / qpmax=69 / qpstep=4 / ip_ratio=1.40 / aq=1:1.00

Encoded date : UTC 2018-02-09 09:11:03

Tagged date : UTC 2018-02-09 09:11:03


Audio

ID : 2

Format : AAC

Format/Info : Advanced Audio Codec

Format profile : LC

Codec ID : mp4a-40-2

Duration : 42 min 22 s

Bit rate mode : Constant

Bit rate : 256 kb/s

Channel(s) : 2 channels

Channel positions : Front: L R

Sampling rate : 48.0 kHz

Frame rate : 46.875 FPS (1024 SPF)

Compression mode : Lossy

Stream size : 77.6 MiB (19%)

Title : RARBG - Arrow.S06E13.WEBRip.x264-ION10

Language : English

Default : Yes

Alternate group : 1

Encoded date : UTC 2018-02-09 09:11:03

Tagged date : UTC 2018-02-09 09:11:03


SCREENSHOT
SCREENSHOT

Torrent location

https://www.1337x.to/torrent/2789048/Arrow-S06E13-WEBRip-x264-ION10/

Trackers

Refresh Leechers : Updated July 28, 2018

1. http://bigfoot1942.sektori.org:6969/announce

2. http://tracker2.wasabii.com.tw:6969/announce

3. http://tracker.opentrackr.org/announce

4. http://announce.torrentsmd.com:6969/announce

5. http://tracker.trackerfix.com/announce

6. http://tracker.opentrackr.org/announce

7. udp://explodie.org:6969/announce

8. udp://mgtracker.org:6969/announce

9. udp://asnet.pw:2710/announce

10. udp://tracker.mgtracker.org:2710/announce

11. udp://tracker4.piratux.com:6969/announce

12. udp://tracker.trackerfix.com:80/announce

13. udp://tracker.pomf.se:80/announce

14. udp://tracker.x4w.co:6969/announce

15. udp://castradio.net:6969/announce

16. udp://ipv4.tracker.harry.lu:80/announce

17. udp://tracker.mg64.net:6881/announce

18. udp://tracker.sktorrent.net:6969/announce

19. udp://tracker.blackunicorn.xyz:6969/announce

20. udp://tracker.internetwarriors.net:1337/announce

21. udp://public.popcorn-tracker.org:6969/announce

22. udp://glotorrents.pw:6969/announce

23. udp://tracker.vanitycore.co:6969/announce

24. udp://tracker.trackerfix.com:80/announce

25. udp://p4p.arenabg.ch:1337/announce

26. udp://9.rarbg.me:2710/announce

27. udp://tracker.zer0day.to:1337/announce

28. udp://tracker.opentrackr.org:1337/announce

29. udp://tracker.pirateparty.gr:6969/announce

30. udp://9.rarbg.to:2710/announce

31. udp://eddie4.nl:6969/announce

32. udp://tracker.coppersurfer.tk:6969/announce

33. udp://tracker.leechers-paradise.org:6969/announce

34. http://tracker.trackerfix.com/announce

35. udp://9.rarbg.to:2710/announce

36. udp://9.rarbg.me:2710/announce

Comments

You must log in to add a comment.

Embed Code

Sharing Widget

Related torrents

FILENAME SIZE SEEDS PEERS ADDED UPD
[i] Arrow.S06E13.The.Devils.Greatest.Trick.720p.AMZN.WEBRip.DDP5.1.x264-CasStudio 1.03 GB 8 2 6 months 3 weeks

Top Series ( auto generated report )

FILENAME SIZE SEEDS PEERS ADDED UPD
[i] Castle.Rock.S01E06.WEBRip.x264-PBS[ettv] 231.72 MB 807 152 4 days 3 days
[i] Animal.Kingdom.US.S03E12.WEBRip.x264-TBS[ettv] 362.64 MB 590 139 4 days 3 days
[i] Suits.S08E05.HDTV.x264-SVA[ettv] 192.8 MB 503 46 3 days 2 days
[i] Killjoys.S04E05.WEBRip.x264-PBS[eztv] 280.5 MB 470 569 1 day 1 day
[i] Big.Brother.US.S20E22.HDTV.x264-[WRCR] 349.73 MB 440 46 3 days 2 days
[i] Killjoys.S04E05.WEBRip.x264-PBS[ettv] 280.45 MB 841 91 1 day 15 hours
[i] Hard.Knocks.S13E02.WEBRip.x264-PBS[ettv] 663.25 MB 328 62 3 days 2 days
[i] Wynonna.Earp.S03E05.HDTV.x264-KILLERS[ettv] 283.44 MB 319 30 1 day 20 hours
[i] MasterChef.US.S09E13.WEB.x264-CookieMonster[ettv] 341.7 MB 233 29 3 days 2 days
[i] The.Sinner.S02E03.HDTV.x264-KILLERS[ettv] 176.99 MB 232 24 3 days 2 days